#TITLE:The legend of MAXX 300;
#SUBTITLE:;
#ARTIST:Omega+Z+ZZ;
#TITLETRANSLIT:;
#SUBTITLETRANSLIT:;
#ARTISTTRANSLIT:;
#CREDIT:;
#BANNER:;
#BACKGROUND:legend.png;
#LYRICSPATH:;
#CDTITLE:;
#MUSIC:The legend of MAXX 300.mp3;
#OFFSET:-1.020;
#SAMPLESTART:13.580;
#SAMPLELENGTH:12.000;
#SELECTABLE:YES;
#DISPLAYBPM:*;
#BPMS:0.000=300.000,128.000=279.999,160.000=299.999,192.000=149.999,208.000=299.999,240.000=139.999,248.000=119.999,249.000=99.999,250.000=69.999,250.500=83.299,259.000=332.998,323.000=665.996;
#STOPS:250.500=0.920
;
#BGCHANGES:0.000=max300.png=1.000=1=0=1,
128.000=maxx.png=1.000=1=0=1,
250.750=legend.png=1.000=1=0=1,
99999=-nosongbg-=1.000=0=0=0 // don't automatically add -songbackground-
;
// cache tags:
#FIRSTBEAT:0.000;
#LASTBEAT:459.333;
#SONGFILENAME:Songs/Music V.I.P ^_^/TLoMXX300/max.sm;
#HASMUSIC:1;
#HASBANNER:0;
#MUSICLENGTH:91.916;
// end cache tags

//---------------dance-single - heavy----------------
#NOTES:
     dance-single:
     heavy:
     Hard:
     10:
     1.000,1.000,0.762,0.892,0.163,552.000,70.000,82.000,0.000,0.000:
0110
0000
1100
0000
1000
0100
0010
0001
,
0010
0000
1010
0000
0100
0001
0010
0100
,
0001
0000
1100
0000
0001
0100
0010
1000
,
0010
1100
0011
0000
,
1100
0000
1001
0000
0010
0001
0100
0010
,
0001
0000
1100
0000
0010
1000
0100
0001
,
0010
0000
1100
0000
0001
0010
0100
1000
,
0100
0011
1001
0000
,
0110
0000
1001
0000
0100
1000
0010
1000
,
0100
0000
1010
0000
0001
1000
0001
0100
,
0010
0000
1001
0000
0010
0100
1000
0010
,
0001
0110
1100
0000
,
0011
0000
0100
0010
1000
0100
0010
0001
,
0010
0000
0100
0001
1000
0010
0001
0000
,
0100
0001
1000
0000
0100
0001
0010
0000
,
1000
0010
0100
0001
1000
0010
1000
0000
,
1002
0000
0203
0000
0000
0320
0000
0001
,
2030
0000
3020
0000
0000
0032
0000
1000
,
0203
0000
0320
0000
0000
2030
0000
3001
,
1100
0110
1001
0101
,
0210
0000
2300
0000
0000
3002
0000
0100
,
0023
0000
0032
0000
0000
0203
0000
0010
,
2300
0000
3002
0000
0000
0023
0000
0130
,
1010
1001
0110
1100
,
0021
0000
2030
0000
0000
3002
0000
1000
,
0023
0000
0032
0000
0000
0203
0000
0010
,
2300
0000
3002
0000
0000
0023
0000
0130
,
1001
1010
0011
1001
,
0100
0010
0100
0001
1000
0100
0001
1000
,
0100
0010
0001
1000
0010
0001
0000
0000
,
1010
0000
0000
0000
0000
0000
0000
0000
0000
0000
0000
0000
0010
0000
0000
0000
1000
0000
0000
0000
0000
0000
0000
0000
0000
0000
0000
0000
0000
0000
0010
0000
0000
0001
0000
0000
0000
0000
0000
0000
0000
0000
0000
0000
0000
0000
0000
0000
,
1100
0110
1001
0011
,
0002
1000
0000
2003
0010
0000
3020
0001
,
0000
0230
2000
3300
0011
0000
1001
0000
,
0200
0001
0000
0320
0001
0000
2030
0100
,
0000
3002
0100
0000
0203
0010
0000
2300
,
0010
0000
3002
0010
1000
0003
1000
0010
,
0100
2000
0000
0100
0001
3000
0001
0100
,
0000
0020
0000
1000
0100
0030
0100
1000
,
0000
0000
0100
0010
1000
0100
0010
0001
,
1001
0010
0100
0000
1000
0010
0100
0000
,
0010
1000
0010
0001
0100
0010
0100
0000
,
0001
0010
1000
0000
1000
0100
0001
0000
,
0010
1000
0100
0001
0010
0001
0100
0000
,
1000
0100
0010
0100
0001
1000
0010
1000
,
0010
0001
0100
1000
0010
1000
0100
0001
,
0010
1000
0100
0010
1000
0001
0100
0000
,
0010
1000
0100
0001
0010
1000
0100
0001
,
0000
0000
0210
0000
0000
2000
0300
0000
0002
3000
0000
0020
0003
0000
0200
0030
,
0001
0300
0002
0000
0000
2000
0003
0000
0020
3000
0000
0200
0030
0000
0020
0300
,
0000
0030
0102
0000
0000
2000
0003
0000
0200
3000
0000
0020
0300
0000
0002
0030
,
0000
0003
0200
0000
0000
2000
0300
0000
0020
3000
0000
2000
0030
0000
0200
3000
,
0301
0100
1000
0010
0100
0001
0010
1000
,
0001
0010
0100
1000
0010
0001
0100
0000
,
0010
0001
1000
0100
0010
1000
0100
0001
,
0010
1000
0001
0100
0001
0100
1000
0000
,
0010
0100
0001
0010
0001
0100
1000
0001
,
0010
1000
0100
0010
1000
0100
1000
0000
,
0001
0010
0100
0000
1000
0100
0001
0000
,
0010
0100
0001
1000
0100
0010
0001
0100
,
0000
0000
2000
3200
0300
0200
0302
0003
0020
0230
0300
0200
0320
0030
0002
0000
,
0003
0000
2000
3200
0300
0020
0032
0003
0200
2300
3000
2000
3200
0300
0001
0000
,
2002
0000
0000
0000
0000
0000
0000
0000
0000
0000
0000
0000
0000
0000
0000
0000
0000
0000
0000
0000
0000
0000
0000
0000
0000
0000
0000
0000
0000
0000
0000
0000
0000
0000
0000
0000
0000
0000
0000
0000
0000
3003
0000
0000
0000
0000
0000
0000
0100
0000
0000
0000
0000
0000
0001
0000
0000
0000
0000
0000
0010
0000
0000
0000
,
0000
0000
0000
0000
0000
0000
0001
0000
1001
0000
0000
0000
0000
0000
0100
0000
0100
0000
0000
0001
0000
0000
0010
0000
0010
0000
0000
1000
0000
0000
0100
0000
,
0000
0000
0000
0000
0000
0000
0010
0000
0110
0000
0000
0000
0000
0000
0100
0000
1000
0000
0000
0001
0000
0000
0010
0000
1000
0000
0000
0000
0000
0000
0000
0000
,
0001
0010
1000
0001
,
0100
0000
0010
0100
1000
0000
0001
0000
,
0010
0001
0100
1000
,
0010
0000
1000
0010
0001
0000
1000
0000
,
0010
0000
0100
1000
0010
0000
0100
0000
,
0010
0000
0001
1000
0010
0000
1000
0010
,
0100
0000
0001
0010
0100
0010
1000
0001
,
0100
0000
0001
1000
0001
0000
1000
0100
,
0010
0000
0001
0010
0100
0000
0010
0100
,
1000
0000
0010
0100
1000
0000
0001
0100
,
0010
0000
0010
0001
1000
0000
0010
0100
,
0001
0000
0010
0100
1000
0000
0100
0010
,
0001
0000
0010
0100
0010
0000
0100
0010
,
0100
0000
0001
0010
1000
0000
0100
1000
,
0001
0000
0010
0001
0100
0000
0100
1000
,
0001
0000
1000
0100
1000
0000
0001
0000
,
0100
0001
0100
1000
,
0100
1000
0001
1000
,
0100
0010
0001
0100
,
0010
1000
0010
1000
,
0100
0001
1000
0100
,
0010
0001
0010
0100
,
1000
0001
0100
0001
,
0100
0001
1000
0010
,
1000
0010
1000
0100
,
1000
0100
0010
0001
,
0010
0001
0010
0100
,
0010
0100
0001
0100
,
1000
0001
0100
0001
,
0010
1000
0100
1000
,
0010
0001
0010
0100
,
0001
0000
0000
0110
,
0000
0000
1100
0000
,
0000
0110
0000
0000
,
0000
0000
0000
0000
,
0000
0110
0000
1001
,
0000
0000
1100
0000
,
0000
0110
0000
0101
,
0000
0000
1010
0000
,
0000
1001
0000
0110
,
0000
0000
0011
0000
,
0000
1010
0000
0101
,
0000
0000
1001
0000
,
0000
0011
0000
0110
,
0000
0000
1100
0000
,
0000
0101
0000
1001
,
0000
0000
1010
0000
,
0000
0110
0000
2002
,
0000
0000
0000
0000
,
0000
0000
0000
0000
0000
0000
0000
0000
0000
0000
3003
0000
;

//---------------dance-single - challenge----------------
#NOTES:
     dance-single:
     challenge:
     Challenge:
     10:
     0.929,1.000,0.065,0.218,0.016,572.000,6.000,20.000,0.000,1.000:
0000
0000
0000
0000
,
0000
0000
0000
0000
,
0000
0000
0000
0000
,
0000
0000
0000
0000
,
0010
0000
1000
0000
0001
0100
0000
0010
,
1000
0000
0001
0000
0100
0010
0000
0100
,
0001
0000
1000
0000
0010
0100
0000
0001
,
1000
0010
0010
0000
,
1000
0100
1000
0100
1000
0001
0010
0001
,
0010
0100
1000
0010
0001
0100
0001
0100
,
1000
0100
0001
0010
1000
0010
0001
0100
,
0010
1000
0010
0001
1000
0100
0000
0000
,
0100
0001
0100
0010
1000
0010
1000
0100
,
0001
0010
0100
0001
0100
0010
1000
0100
,
0001
0100
0010
1000
0001
0100
1000
0010
,
0100
1000
0100
0010
0001
0100
0010
1000
,
0002
0000
0013
0000
0000
1000
0000
0100
,
0020
0000
0031
0000
0000
0001
0000
0010
,
2000
0000
3001
0000
0000
0000
0100
0010
,
1000
0001
0100
0010
1000
0100
0001
0000
,
1000
0010
0001
0100
1000
0010
0001
0100
,
0001
1000
0010
0100
1000
0001
1000
0010
,
1000
0100
1000
0001
0010
0100
1000
0100
,
0001
0010
1000
0010
0100
0001
0100
1000
,
0100
0001
1000
0010
0100
0001
1000
0001
,
0100
0010
1000
0010
0100
1000
0100
0010
,
0001
1000
0100
1000
0010
0001
0100
0010
,
0100
1000
0001
0010
0100
0001
1000
0010
,
0100
0010
1000
0010
0100
0010
1000
0010
,
0100
0001
1000
0001
0100
0001
1000
0001
,
0100
0010
1000
0001
1000
0100
0010
0001
,
1000
0010
1000
0100
1000
0010
0001
0000
,
1000
0010
0100
0001
,
0010
0100
0010
0001
,
1000
0010
0100
0001
,
1000
0100
0001
0010
,
1000
0010
0100
0001
,
0010
0100
0010
0001
,
1000
0010
0100
0001
,
0010
0100
0010
1000
0010
0001
0010
1000
,
0010
0100
0001
0010
0100
0010
0001
0100
,
1000
0001
0100
0010
0100
0001
0010
1000
,
0001
0100
1000
0010
0100
0001
0010
1000
,
0001
0100
0001
0010
0100
1000
0001
0000
,
0100
0010
0001
0100
1000
0010
0001
0100
,
1000
0100
0001
0010
1000
0010
0001
0100
,
1000
0100
0010
0001
0100
0001
0010
1000
,
0001
0010
0001
0100
0010
1000
0001
0000
,
1000
0010
0100
0001
0010
0100
0010
0001
,
1000
0010
0100
0001
1000
0100
0010
0001
,
0100
0010
1000
0001
0010
0100
0010
0001
,
1000
0010
0100
0001
1000
0010
0100
0010
,
0001
0100
1000
0001
0100
1000
0010
0001
,
0100
1000
0100
0001
1000
0100
1000
0010
,
0001
0010
0001
0100
0010
0100
1000
0010
,
0100
0010
1000
0001
0100
0010
1000
0001
,
0100
0010
1000
0001
0100
0010
1000
0001
,
0010
1000
0100
0001
1000
0010
1000
0001
,
0100
0010
1000
0001
0010
0100
1000
0001
,
0100
0010
1000
0001
0100
0010
0100
0001
,
0000
2000
3020
0000
0230
0302
0000
0023
,
0000
2030
3200
0000
0320
0032
0000
0013
,
2200
0000
0000
0000
0000
0000
0000
0000
0000
0000
0000
0000
0000
0000
0000
0000
0000
0000
0000
0000
0000
0000
0000
0000
0000
0000
0000
0000
0000
0000
0000
0000
0000
3301
0000
0000
0000
0000
0000
0000
0010
0000
0000
0000
1000
0000
0000
0000
,
0000
1000
0010
0100
0001
0010
1000
0100
,
0010
0001
0010
0100
0001
0100
1000
0000
,
0001
0010
0100
0001
,
1000
0010
0100
1000
,
0001
0100
0010
1000
,
0100
0010
0100
0000
1000
0000
0001
0000
,
0010
0100
0010
0000
1000
0000
0010
0000
,
0100
1000
0100
0000
0010
0000
1000
0000
,
0100
0001
0100
0000
0010
0000
0001
0000
,
1000
0100
1000
0000
0000
0000
1000
0100
,
1000
0100
1000
0100
1000
0100
1000
0100
,
1000
0100
0000
0000
0000
0000
0001
0100
,
1000
0100
0001
0100
1000
0100
0001
0100
,
1000
0000
0001
0000
0000
0000
1000
0100
,
0001
0100
1000
0010
0001
0010
1000
0100
,
1000
0010
0001
0010
0000
0000
0001
0010
,
0100
1000
0001
0010
0100
1000
0001
0010
,
0100
1000
0000
0000
0000
0000
0010
0000
,
1000
0010
0100
0010
,
0001
0010
0100
0010
,
1000
0010
0100
0000
,
0000
0000
0000
0001
,
1000
0001
1000
0001
,
1000
0001
1000
0001
,
1000
0001
1000
0000
,
0000
0000
0000
0010
,
0001
0010
0100
0010
,
0001
0010
0100
0010
,
1000
0010
0001
0000
,
0000
0000
0000
1000
,
0100
1000
0010
1000
,
0100
1000
0010
1000
,
0001
1000
0100
0000
,
0000
0000
0000
1002
,
0000
0000
0010
0000
,
0000
0100
0000
0000
,
0000
0003
0000
0000
,
0000
2001
0000
0001
,
0000
0000
0010
0000
,
0000
0100
0000
0001
,
0000
0000
0100
0000
,
0000
3010
0000
0201
,
0000
0000
0010
0000
,
0000
1000
0000
0010
,
0000
0000
0301
0000
,
0000
0021
0000
1000
,
0000
0000
0100
0000
,
0000
0001
0000
1000
,
0000
0000
0100
0000
,
0000
0130
0000
2002
,
0000
0000
0000
0000
,
0000
0000
0000
0000
0000
0000
0000
0000
0000
0000
0000
0000
0000
0000
0000
0000
0000
0000
0000
0000
0000
0000
0000
0000
0000
0000
0000
0000
0000
0000
0000
0000
0000
0000
0000
0000
0000
0000
0000
0000
0000
0000
0000
0000
0000
0000
0000
0000
0000
0000
0000
0000
0000
0000
0000
0000
0000
0000
0000
0000
0000
0000
0000
0000
0000
0000
0000
0000
0000
0000
0000
0000
0000
0000
0000
0000
0000
0000
0000
0000
0000
0000
0000
0000
0000
0000
0000
0000
0000
0000
0000
0000
0000
0000
0000
0000
0000
0000
0000
0000
0000
0000
0000
0000
0000
0000
0000
0000
0000
0000
0000
0000
0000
0000
0000
0000
0000
0000
0000
0000
0000
0000
0000
0000
0000
0000
0000
0000
0000
0000
0000
0000
0000
0000
0000
0000
0000
0000
0000
0000
0000
0000
0000
0000
0000
0000
0000
0000
0000
0000
0000
0000
0000
0000
0000
0000
0000
3003
0000
0000
0000
0000
0000
0000
0000
0000
0000
0000
0000
0000
0000
0000
0000
0000
0000
0000
0000
0000
0000
0000
0000
0000
0000
0000
0000
0000
0000
0000
0000
0000
0000
0000
;
